Author: Alexander on 18-11-2016, 06:35
Coursera - Comprendre les Microcontroleurs

Coursera - Comprendre les Microcontro?leurs
Ecole Polytechnique Federale de Lausanne with Jean-Daniel Nicoud and Pierre-Yves Rochat

WEBRip | French | MP4 + PDF Guides | 960 x 540 | AVC ~28.9 kbps | 25 fps
AAC | 93.2 Kbps | 48.0 KHz | 2 channels | Subs: French (.srt) | 13:06:29 | 1.4 GB
Genre: eLearning Video / Electrical Engineering, Computer Science, Technology
Les microcontroleurs sont devenus assez simples a mettre en oeuvre, grace en particulier a des environnements de developpement comme l'Arduino. Mais seule une comprehension en profondeur permet de tirer parti au maximum de leur potentiel dans de nombreuses applications, tant dans le cadre d'un hobby que dans un cadre industriel.


Syllabus

Rappel d'electricite et electronique
Systemes logiques et architecture
Machines binaires
Programmation en C
Entrees-sorties
Applications
Mise au point
Timers, interruptions
Signaux analogiques
Affichages
Communications
Robotique


also You can watch my other last:



General
Complete name : 01_Introduction_au_langage_C.mp4
Format

: MPEG-4
Format profile : Base Media
Codec ID : isom
File size : 21.4 MiB
Duration : 23mn 16s
Overall bit rate mode : Variable
Overall bit rate : 128 Kbps
Encoded date : UTC 1970-01-01 00:00:00
Tagged date : UTC 1970-01-01 00:00:00
Writing application : Lavf52.99.1

Video
ID

: 1
Format

: AVC
Format/Info : Advanced Video Codec
Format profile : [emailáprotected]/* */
Format settings, CABAC : Yes
Format settings, ReFrames : 4 frames
Codec ID : avc1
Codec ID/Info : Advanced Video Coding
Duration : 23mn 16s
Bit rate : 28.9 Kbps
Width

: 960 pixels
Height

: 540 pixels
Display aspect ratio : 16:9
Frame rate mode : Constant
Frame rate : 25.000 fps
Color space : YUV
Chroma subsampling : 4:2:0
Bit depth : 8 bits
Scan type : Progressive
Bits/(Pixel*Frame) : 0.002
Stream size : 4.81 MiB (23%)
Writing library : x264 core 114 r1913 5fd3dce
Encoding settings : cabac=1 / ref=1 / deblock=1:0:0 / analyse=0x3:0x113 / me=hex / subme=2 / psy=1 / psy_rd=0.00:0.00 / mixed_ref=0 / me_range=16 / chroma_me=1 / trellis=0 / 8x8dct=1 / cqm=0 / deadzone=21,11 / fast_pskip=1 / chroma_qp_offset=0 / threads=3 / sliced_threads=0 / nr=0 / decimate=1 / interlaced=0 / constrained_intra=0 / bframes=3 / b_pyramid=2 / b_adapt=1 / b_bias=0 / direct=1 / weightb=1 / open_gop=0 / weightp=0 / keyint=250 / keyint_min=25 / scenecut=40 / intra_refresh=0 / rc_lookahead=10 / rc=crf / mbtree=1 / crf=28.0 / qcomp=0.60 / qpmin=0 / qpmax=69 / qpstep=4 / ip_ratio=1.41 / aq=1:1.00
Encoded date : UTC 1970-01-01 00:00:00
Tagged date : UTC 1970-01-01 00:00:00

Audio
ID

: 2
Format

: AAC
Format/Info : Advanced Audio Codec
Format profile : LC
Codec ID : 40
Duration : 23mn 16s
Bit rate mode : Variable
Bit rate : 93.2 Kbps
Channel(s) : 2 channels
Channel positions : Front: L R
Sampling rate : 48.0 KHz
Compression mode : Lossy
Stream size : 15.5 MiB (73%)
Encoded date : UTC 1970-01-01 00:00:00
Tagged date : UTC 1970-01-01 00:00:00



Coursera - Comprendre les Microcontroleurs

Coursera - Comprendre les Microcontroleurs






Coursera - Comprendre les Microcontroleurs




Coursera - Comprendre les Microcontroleurs




Coursera - Comprendre les Microcontroleurs




Coursera - Comprendre les Microcontroleurs



Coursera - Comprendre les Microcontroleurs


Coursera - Comprendre les Microcontroleurs

DOWNLOAD
(Buy premium account for maximum speed and resuming ability)


http://nitroflare.com/view/23283E6E7220591/aeyqt.C.C.l.M.part01.rar
http://nitroflare.com/view/8836B6343646FE6/aeyqt.C.C.l.M.part02.rar
http://nitroflare.com/view/D2FCDACE936BED4/aeyqt.C.C.l.M.part03.rar
http://nitroflare.com/view/981C26CE1519F48/aeyqt.C.C.l.M.part04.rar
http://nitroflare.com/view/B2C68842EB6C295/aeyqt.C.C.l.M.part05.rar
http://nitroflare.com/view/B217293C703AA4A/aeyqt.C.C.l.M.part06.rar
http://nitroflare.com/view/58A97DDE92A877A/aeyqt.C.C.l.M.part07.rar
http://nitroflare.com/view/B7570921E008CE2/aeyqt.C.C.l.M.part08.rar
http://nitroflare.com/view/977107B25D560CE/aeyqt.C.C.l.M.part09.rar

http://rapidgator.net/file/81b2549ae7e574e3503b83ca2b516d6d/aeyqt.C.C.l.M.part01.rar
http://rapidgator.net/file/d1928988c97b986c78e9b3dd78c70ee1/aeyqt.C.C.l.M.part02.rar
http://rapidgator.net/file/89cca5aff3a741565ec36fefd4cf8110/aeyqt.C.C.l.M.part03.rar
http://rapidgator.net/file/0994b1d86f5b89af9421c6b382d06994/aeyqt.C.C.l.M.part04.rar
http://rapidgator.net/file/4feec44c0bd0827ff7c9b15d448a93e4/aeyqt.C.C.l.M.part05.rar
http://rapidgator.net/file/00c71f1ff94f5b6270b4e97655d3b80d/aeyqt.C.C.l.M.part06.rar
http://rapidgator.net/file/c9122991dde121767cc65020668e6782/aeyqt.C.C.l.M.part07.rar
http://rapidgator.net/file/06481fef001ab55a456616f65e0203e2/aeyqt.C.C.l.M.part08.rar
http://rapidgator.net/file/3156a9ea6d8fd8ee58c8b11cee5ca7d7/aeyqt.C.C.l.M.part09.rar

http://uploaded.net/file/g0drun27/aeyqt.C.C.l.M.part01.rar
http://uploaded.net/file/9vhrqdyc/aeyqt.C.C.l.M.part02.rar
http://uploaded.net/file/fnw2iii9/aeyqt.C.C.l.M.part03.rar
http://uploaded.net/file/5adu9jkp/aeyqt.C.C.l.M.part04.rar
http://uploaded.net/file/5x9ujf4c/aeyqt.C.C.l.M.part05.rar
http://uploaded.net/file/41zzyz3h/aeyqt.C.C.l.M.part06.rar
http://uploaded.net/file/uwepwaiw/aeyqt.C.C.l.M.part07.rar
http://uploaded.net/file/g5b9y6kb/aeyqt.C.C.l.M.part08.rar
http://uploaded.net/file/8h3an2ah/aeyqt.C.C.l.M.part09.rar

Dear visitor, you are browsing our website as Guest.
We strongly recommend you to register and login to view hidden contents.

Information
Would you like to leave your comment? Please Login to your account to leave comments. Don't have an account? You can create a free account now.
MEMBER PANEL

Register | Forgot Password
OUR NETWORK
ONLINE SUPPORT
ADVERTISING
Link 1
Designed by gfxbing.com
Go Daddy Web Hosting! A completely unique experience - only  $1.99 / mo from Go Daddy! - 468x60