Author: rukensai on 17-11-2016, 03:10
http://s2.1pic.org/files/2016/11/16/9ea82cd0823001837cb1.jpg
TutsPlus Create a REST API With Phalcon|469.03 MB


TutsPlus – Create a REST API With Phalcon
Author: Manish Kumar
Released: 18 Apr 2016
URL: https://code.tutsplus.com/courses/create-a-rest-api-with-phalcon
Source: https://github.com/tutsplus/create-a-rest-api-with-phalcon

Phalcon is a full-stack PHP framework packed with the same features as all the rest, but with one important difference: Phalcon is the fastest PHP framework ever built! Instead of being written in PHP and loaded dynamically by your application, Phalcon is a C-language extension that loads in your RAM as a PHP module, which makes it blazing fast.

In this course, Envato Tuts+ instructor Manish Kumar will teach you how to get started with the Phalcon PHP framework by building a simple REST API. You’ll learn how to set up a development environment, how to define a database schema and API endpoints, and how to implement create, read, update and delete (CRUD) operations to persist data to an SQL database.

Quote:

General
Complete name : D:\TutsPlus\TutsPlus – Create a REST API With Phalcon\01. Introduction\0101_Introduction.mp4
Format : MPEG-4
Format profile : Base Media / Version 2
Codec ID : mp42 (mp42/isom)
File size : 15.0 MiB
Duration : 1 min 18 s
Overall bit rate mode : Variable
Overall bit rate : 1 594 kb/s
Encoded date : UTC 2016-04-13 09:54:05
Tagged date : UTC 2016-04-13 09:54:58

Video
ID : 1
Format : AVC
Format/Info : Advanced Video Codec
Format profile : Main@L3.2
Format settings, CABAC : Yes
Format settings, ReFrames : 5 frames
Codec ID : avc1
Codec ID/Info : Advanced Video Coding
Duration : 1 min 18 s
Bit rate : 1 340 kb/s
Width : 1 280 pixels
Height : 800 pixels
Display aspect ratio : 16:10
Frame rate mode : Constant
Frame rate : 25.000 FPS
Color space : YUV
Chroma subsampling : 4:2:0
Bit depth : 8 bits
Scan type : Progressive
Bits/(Pixel*Frame) : 0.052
Stream size : 12.6 MiB (84%)
Encoded date : UTC 2016-04-13 09:54:05
Tagged date : UTC 2016-04-13 09:54:57
Color primaries : BT.709
Transfer characteristics : BT.709
Matrix coefficients : BT.709

Audio
ID : 2
Format : AAC
Format/Info : Advanced Audio Codec
Format profile : LC
Codec ID : 40
Duration : 1 min 18 s
Bit rate mode : Variable
Bit rate : 250 kb/s
Maximum bit rate : 303 kb/s
Channel(s) : 2 channels
Channel positions : Front: L R
Sampling rate : 44.1 kHz
Frame rate : 43.066 FPS (1024 spf)
Compression mode : Lossy
Stream size : 2.35 MiB (16%)
Encoded date : UTC 2016-04-13 09:54:05
Tagged date : UTC 2016-04-13 09:54:08
Download link:
With Premium Account For Maximum Speed!
Links are Interchangeable - Single Extraction - Premium is support resumable

Dear visitor, you are browsing our website as Guest.
We strongly recommend you to register and login to view hidden contents.

Information
Would you like to leave your comment? Please Login to your account to leave comments. Don't have an account? You can create a free account now.
MEMBER PANEL

Register | Forgot Password
OUR NETWORK
ONLINE SUPPORT
ADVERTISING
Link 1
Designed by gfxbing.com
Go Daddy Web Hosting! A completely unique experience - only  $1.99 / mo from Go Daddy! - 468x60