Author: huayting on 16-11-2016, 14:05
http://i85.fastpic.ru/big/2016/1116/d7/13ed19220bd33f7246ae178b12fdd5d7.jpg

Coursera - Deafness in the 21st Century
University of Manchester with Wendy Mccracken and Helen Chilton

WEBRip | English | MP4 | 960 x 540 | AVC ~145 kbps | 29.970 fps
AAC | 128 Kbps | 44.1 KHz | 2 channels | Subs: English (.srt) | 07:23:58 | 1.11 GB
Genre: eLearning Video / Health, Hearing Disorders, Deafness, Medicine

Communication is central to human experience. For those who are born deaf this is the area most at risk. Unless you have personal experience of deafness in your work or a family member who is deaf you may never have thought about this topic. As deafness is invisible the 350 million individuals worldwide who are deaf, half of this is preventable, are at the fringe of many societies.
This short course will allow you to consider health, social and societal issues in relation to deafness. You will understand how the hearing system works and what can go wrong, particular challenges in low and middle income countries, about screening and diagnostic services, amplification including solar powered aids, challenges to inter-personal communication, sign language and positive stories about what deaf individual can and do achieve. This will challenge stereotypes and will promote a positive message about deafness in the 21st century.

Syllabus

1. Deafness: a global perspective of the silent epidemic
The global inequalities and implications for deaf children, young people and adults.
An introduction to the hearing system and basic physiology.
Understanding the auditory system.

2. Preventable cause of deafness
Epidemiology of hearing loss in low and middle income countries.
Prevention of hearing impairment and disability, including noise damage, ototoxicity, age related hearing loss, middle ear disease and measles, mumps, rubella and malaria as causes of deafness.

3. Identification and assessment of deafness and amplification
Screening, diagnostic assessment, the potential and challenge of amplification.
The role of NGOs and manufacturing companies in provision of amplification.
Examples of practice.

4. Family Centred Early Intervention
Consideration of the international consensus statement on family centred early intervention.
Examples of how this can apply in a low income countries.
Developing early communication and literacy skills, empowering parents and working with the Deaf community.

5. Fostering interpersonal communication across language modalities
Use of signed languages
Speechreading
Spoken language
Facilitating communication

6. Possible futures: given support, what can deaf children and adults achieve?
Case studies of possible futures
Focus on international projects


General
Complete name : 07_Video_4.7Zambia-_A_case_study_of_FCEI04-54.mp4
Format : MPEG-4
Format profile : Base Media
Codec ID : isom
File size : 9.90 MiB
Duration : 4mn 54s
Overall bit rate : 282 Kbps
Writing application : Lavf55.19.104

Video
ID : 1
Format : AVC
Format/Info : Advanced Video Codec
Format profile : Main@L3.1
Format settings, CABAC : Yes
Format settings, ReFrames : 4 frames
Codec ID : avc1
Codec ID/Info : Advanced Video Coding
Duration : 4mn 54s
Bit rate : 145 Kbps
Width : 960 pixels
Height : 540 pixels
Display aspect ratio : 16:9
Frame rate mode : Constant
Frame rate : 29.970 fps
Color space : YUV
Chroma subsampling : 4:2:0
Bit depth : 8 bits
Scan type : Progressive
Bits/(Pixel*Frame) : 0.009
Stream size : 5.10 MiB (52%)
Writing library : x264 core 138
Encoding settings : cabac=1 / ref=3 / deblock=1:0:0 / analyse=0x1:0x111 / me=hex / subme=7 / psy=1 / psy_rd=1.00:0.00 / mixed_ref=1 / me_range=16 / chroma_me=1 / trellis=1 / 8x8dct=0 / cqm=0 / deadzone=21,11 / fast_pskip=1 / chroma_qp_offset=-2 / threads=12 / lookahead_threads=2 / sliced_threads=0 / nr=0 / decimate=1 / interlaced=0 / bluray_compat=0 / constrained_intra=0 / bframes=3 / b_pyramid=2 / b_adapt=1 / b_bias=0 / direct=1 / weightb=1 / open_gop=0 / weightp=2 / keyint=250 / keyint_min=25 / scenecut=40 / intra_refresh=0 / rc_lookahead=40 / rc=crf / mbtree=1 / crf=28.0 / qcomp=0.60 / qpmin=0 / qpmax=69 / qpstep=4 / ip_ratio=1.40 / aq=1:1.00

Audio
ID : 2
Format : AAC
Format/Info : Advanced Audio Codec
Format profile : LC
Codec ID : 40
Duration : 4mn 54s
Bit rate mode : Constant
Bit rate : 128 Kbps
Channel(s) : 2 channels
Channel positions : Front: L R
Sampling rate : 44.1 KHz
Compression mode : Lossy
Stream size : 4.49 MiB (45%)


Screenshots

http://i82.fastpic.ru/big/2016/1116/7f/60af88e1a6b5cdfc39612af8fe49737f.jpg


http://i82.fastpic.ru/big/2016/1116/0f/6b4b2e4b70861c0744edbb355d4e7e0f.jpg


http://i83.fastpic.ru/big/2016/1116/46/73852200fc3c9862ddf4f10a9f5a3f46.jpg


http://i85.fastpic.ru/big/2016/1116/78/4485aadb4e2d71f5c15c83b821545a78.jpg


http://i82.fastpic.ru/big/2016/1116/fb/e9ee0a95b4d1315e2552c21492050ffb.jpg


http://i85.fastpic.ru/big/2016/1116/06/62de057a825837e97f098f05b2c3b906.jpg


http://i82.fastpic.ru/big/2016/1116/4c/d52cd7f933edf88771034448d22a374c.jpg

PLEASE SUPPORT ME BY CLICK ONE OF MY LINKS IF YOU WANT BUYING OR EXTENDING YOUR ACCOUNT
Rapidgator.net
j4hwe.Coursera..Deafness.in.the.21st.Century.part01.rar.html
j4hwe.Coursera..Deafness.in.the.21st.Century.part02.rar.html
j4hwe.Coursera..Deafness.in.the.21st.Century.part03.rar.html
j4hwe.Coursera..Deafness.in.the.21st.Century.part04.rar.html
j4hwe.Coursera..Deafness.in.the.21st.Century.part05.rar.html
j4hwe.Coursera..Deafness.in.the.21st.Century.part06.rar.html
j4hwe.Coursera..Deafness.in.the.21st.Century.part07.rar.html
j4hwe.Coursera..Deafness.in.the.21st.Century.part08.rar.html
j4hwe.Coursera..Deafness.in.the.21st.Century.part09.rar.html

nitroflare_com:
j4hwe.Coursera..Deafness.in.the.21st.Century.part01.rar
j4hwe.Coursera..Deafness.in.the.21st.Century.part02.rar
j4hwe.Coursera..Deafness.in.the.21st.Century.part03.rar
j4hwe.Coursera..Deafness.in.the.21st.Century.part04.rar
j4hwe.Coursera..Deafness.in.the.21st.Century.part05.rar
j4hwe.Coursera..Deafness.in.the.21st.Century.part06.rar
j4hwe.Coursera..Deafness.in.the.21st.Century.part07.rar
j4hwe.Coursera..Deafness.in.the.21st.Century.part08.rar
j4hwe.Coursera..Deafness.in.the.21st.Century.part09.rar

Uploaded.net
j4hwe.Coursera..Deafness.in.the.21st.Century.part01.rar
j4hwe.Coursera..Deafness.in.the.21st.Century.part02.rar
j4hwe.Coursera..Deafness.in.the.21st.Century.part03.rar
j4hwe.Coursera..Deafness.in.the.21st.Century.part04.rar
j4hwe.Coursera..Deafness.in.the.21st.Century.part05.rar
j4hwe.Coursera..Deafness.in.the.21st.Century.part06.rar
j4hwe.Coursera..Deafness.in.the.21st.Century.part07.rar
j4hwe.Coursera..Deafness.in.the.21st.Century.part08.rar
j4hwe.Coursera..Deafness.in.the.21st.Century.part09.rar

Dear visitor, you are browsing our website as Guest.
We strongly recommend you to register and login to view hidden contents.

Information
Would you like to leave your comment? Please Login to your account to leave comments. Don't have an account? You can create a free account now.
MEMBER PANEL

Register | Forgot Password
OUR NETWORK
ONLINE SUPPORT
ADVERTISING
Link 1
Designed by gfxbing.com
Go Daddy Web Hosting! A completely unique experience - only  $1.99 / mo from Go Daddy! - 468x60